#TITLE:Heaven;
#SUBTITLE:Expi3nze;
#ARTIST:Ailee;
#TITLETRANSLIT:;
#SUBTITLETRANSLIT:;
#ARTISTTRANSLIT:;
#CREDIT:;
#BANNER:bn.png;
#BACKGROUND:bg.png;
#LYRICSPATH:;
#CDTITLE:cdtitle.png;
#MUSIC:Heaven.mp3;
#OFFSET:-0.347;
#SAMPLESTART:100.000;
#SAMPLELENGTH:12.000;
#SELECTABLE:YES;
#BPMS:0.000=90.000,4.000=45.000,20.000=90.000,119.000=180.000,119.500=45.000,119.750=90.000,152.250=45.000,152.417=180.000,152.750=90.000,153.000=45.000,153.167=180.000,153.500=90.000,153.750=45.000,153.917=180.147,154.000=179.951,154.250=90.000,154.500=45.000,154.667=180.000,155.000=90.000,156.250=45.000,156.417=180.000,156.750=90.000,157.000=45.000,157.167=180.000,157.500=90.000,157.750=45.000,157.917=180.147,158.000=179.951,158.250=90.000,158.500=45.000,158.667=180.000,159.000=90.000,168.250=45.000,168.417=180.000,168.750=90.000,169.000=45.000,169.167=180.000,169.500=90.000,169.750=45.000,169.917=180.147,170.000=179.951,170.250=90.000,170.500=45.000,170.667=180.000,171.000=90.000,172.250=45.000,172.417=180.000,172.750=90.000,173.000=45.000,173.167=180.000,173.500=90.000,173.750=45.000,173.917=180.147,174.000=179.951,174.250=90.000,174.500=45.000,174.667=180.000,175.000=90.000,183.000=180.000,183.500=45.000,183.750=90.000,184.000=45.000,192.000=90.000;
#STOPS:;
#BGCHANGES:;
// cache tags:
#FIRSTBEAT:4.000;
#LASTBEAT:192.000;
#SONGFILENAME:Songs/Expi3nze 4th Collection/Heaven (Ailee)/Heaven.sm;
#HASMUSIC:1;
#HASBANNER:1;
#MUSICLENGTH:145.332;
// end cache tags

//---------------dance-single - ----------------
#NOTES:
     dance-single:
     :
     Hard:
     14:
     0.650,0.694,0.722,0.454,0.433,465.000,105.000,66.000,0.000,107.000:
0000
0000
0000
0000
,
0001
0010
1000
0100
0010
0001
1000
0010
0101
0010
1000
0001
0010
0100
0010
0000
,
1001
0010
0100
0001
0010
0100
1000
0010
0101
0010
0001
1000
0100
0010
0001
0000
,
1010
0000
0000
0000
0010
0000
1000
0000
1010
0000
0000
0000
1000
0000
0010
1000
0011
0000
0000
0000
1100
0000
1001
0000
0011
0000
0110
0000
1100
0000
0101
0000
,
0101
0000
0011
1001
1010
1100
1000
1000
0002
0000
0000
0000
0000
0000
0000
0000
,
1013
0000
1000
1000
1110
0000
0010
0000
0010
0000
1000
0010
1100
0000
0010
0000
,
0010
0000
0001
0010
1011
0000
0001
0000
1000
0000
1000
0010
1100
0000
0001
0000
,
1000
0000
0010
0010
1110
0000
1000
0000
0010
0000
1000
0001
1100
0000
0010
0000
,
1010
0000
1000
1000
1110
0000
0010
0000
1000
0000
1000
0010
1001
0000
1000
0000
,
1001
0000
1000
1000
1101
0000
0001
0000
0100
0000
0001
0000
0111
0000
0100
0000
,
0101
0000
0010
1000
1110
0000
0010
0000
0010
0000
1000
0010
1100
0000
1000
0000
,
0011
0000
1000
1000
1110
0000
0010
0000
0010
0000
1000
0001
1100
0000
1000
0000
,
0010
0000
0010
0000
1000
0000
0010
0000
1000
0000
0001
0100
0011
0000
0020
0000
,
2000
0000
0100
0000
0131
0000
0001
0010
0100
0000
0001
0010
0101
0000
0201
0000
,
3002
0000
0010
0000
1000
0000
0310
0000
0010
0000
1000
0010
1100
0000
1000
0000
,
0213
0000
0000
0000
1010
0000
2010
0000
0010
0000
0020
0001
3001
0000
0001
0000
,
2030
0010
0001
0000
3311
0000
1000
0100
0001
0000
0100
0000
0111
0000
0200
0000
,
0002
0000
0010
0000
1310
0000
1000
0100
0010
0000
1000
1000
1010
0000
0010
0000
,
2013
0000
0200
0001
0010
0000
0301
0000
0200
0000
0302
0000
0120
0000
0203
0000
,
3031
0301
1011
2000
0200
3020
1001
0030
,
0301
0001
1000
0010
0010
0010
0202
0000
,
0313
0010
0000
1000
0111
0000
1000
1000
0001
0010
0100
1001
1011
1000
0010
0010
,
1001
0001
0001
1010
1011
0100
0010
0001
1000
1000
1000
0000
1110
0000
0010
0010
,
2000
0000
0100
0010
0101
0000
0100
0000
3102
0000
0010
1000
0110
0000
0010
0000
,
2013
0000
0020
0000
3231
0000
0002
0000
2303
0000
0001
0001
3121
0000
0000
0000
,
2032
0000
0000
0000
3113
0000
1000
0100
0010
1000
0100
1001
1011
0100
1000
1000
,
1000
0001
0001
1000
1011
0000
1000
0100
0010
0001
1000
1000
1110
0000
0010
0010
,
2000
0000
0200
0000
3321
0000
0002
0000
0133
0000
1000
0100
0012
0000
0000
0000
,
1003
0000
1000
0000
0001
0000
1000
0000
1000
0000
0000
0010
1102
0000
0000
0000
,
0000
1000
1000
0010
1000
0010
1113
0000
,
2020
0000
0100
0000
0131
0000
0001
0010
0100
0000
0001
0010
0101
0000
0201
0000
,
3002
0000
0010
0000
1000
0000
0310
0000
0010
0000
1000
0010
1100
0000
1000
0000
,
0213
0000
0000
0000
1010
0000
2010
0000
0010
0000
0020
0001
3001
0000
0001
0000
,
2030
0010
0001
0000
3311
0000
1000
0100
0001
0000
0100
0000
0111
0000
0200
0000
,
0002
0000
0010
0000
1310
0000
1000
0100
0010
0000
1000
1000
1010
0000
0010
0000
,
2013
0000
0200
0001
0010
0000
0301
0000
0200
0000
0302
0000
0120
0000
0203
0000
,
3031
0301
1011
2000
0200
3020
1001
0030
,
0301
0001
1000
0010
0010
0010
0202
0000
,
0313
1000
0000
0010
1000
0000
0010
1000
0000
0010
1000
0000
0011
1000
0000
0000
,
0001
0100
0000
0001
0100
0000
0001
0100
0000
0001
0100
0000
0011
1000
0000
0000
,
0100
0000
0100
0000
0111
0000
1000
0100
0010
0001
1000
0000
1110
0000
1000
1000
,
1001
0010
0100
1000
0002
0000
1000
1000
0013
0100
0001
0000
0200
0000
0000
0000
,
0301
0100
0000
0001
0100
0000
0001
0100
0000
0001
0100
0000
0011
1000
0000
0000
,
1000
0010
0000
1000
0010
0000
1000
0010
0000
1000
0010
0000
1100
0001
0000
0000
,
0020
0000
1000
1000
1130
0001
0010
0100
1000
0001
0001
1000
0011
0000
0000
0000
,
0010
1000
0010
1000
0002
0000
1113
0000
,
0010
0100
1000
0010
0100
0010
0001
0100
1010
0100
0001
0010
0100
1000
0010
0000
,
0101
1000
0100
0010
0002
0000
0203
0000
0300
0020
0000
0000
0000
0000
0000
0000
,
0030
0000
0000
0000
;
